Enable Javascript to access this page. Powered by the MGCash
RSS email

Dowload RoboCop 2014 movie in HD

RoboCop

Image

 

In RoboCop, the year is 2028 and multinational conglomerate OmniCorp is at the center of robot technology. Overseas, their drones have been used by the military for years – and it’s meant billions for OmniCorp’s bottom line. Now OmniCorp wants to bring their controversial technology to the home front, and they see a golden opportunity to do it. When Alex Murphy (Joel Kinnaman) – a loving husband, father and good cop doing his best to stem the tide of crime and corruption in Detroit – is critically injured in the line of duty, OmniCorp sees their chance for a part-man, part-robot police officer. OmniCorp envisions a RoboCop in every city and even more billions for their shareholders, but they never counted on one thing: there is still a man inside the machine pursuing justice

Image

Code: Select all
http://www.youtube.com/watch?v=INmtQXUXez8

Image

Code: Select all
http://www.imdb.com/title/tt1234721/

Image

ImageImage

Code: Select all
Format                                   : AVI
Format/Info                              : Audio Video Interleave
File size                                : 730 MiB
Duration                                 : 1h 49mn
Overall bit rate                         : 931 Kbps
Writing library                          : VirtualDub build 30091/release

Video
ID                                       : 0
Format                                   : MPEG-4 Visual
Format profile                           : Advanced Simple@L5
Format settings, BVOP                    : 2
Format settings, QPel                    : No
Format settings, GMC                     : No warppoints
Format settings, Matrix                  : Default (H.263)
Muxing mode                              : Packed bitstream
Codec ID                                 : XVID
Codec ID/Hint                            : XviD
Duration                                 : 1h 49mn
Bit rate                                 : 794 Kbps
Width                                    : 640 pixels
Height                                   : 272 pixels
Display aspect ratio                     : 2.35:1
Frame rate                               : 24.000 fps
Color space                              : YUV
Chroma subsampling                       : 4:2:0
Bit depth                                : 8 bits
Scan type                                : Progressive
Compression mode                         : Lossy
Bits/(Pixel*Frame)                       : 0.190
Stream size                              : 623 MiB (85%)
Writing library                          : XviD 1.2.1 (UTC 2008-12-04)

Audio
ID                                       : 1
Format                                   : AC-3
Format/Info                              : Audio Coding 3
Mode extension                           : CM (complete main)
Format settings, Endianness              : Big
Codec ID                                 : 2000
Duration                                 : 1h 49mn
Bit rate mode                            : Constant
Bit rate                                 : 128 Kbps
Channel(s)                               : 2 channels
Channel positions                        : Front: L R
Sampling rate                            : 48.0 KHz
Bit depth                                : 16 bits
Compression mode                         : Lossy
Stream size                              : 100 MiB (14%)

NOTES!
there was missing some bits from the file i got passed, so i went to moris
PL subbed release and cutted the missing pieces out, and muxed
them back in :) there is around 5min total from that release.

Audio and video are in sync in this version.

Image

Image

Image

Image

Image

Image

Note: If there is captcha in Safelinking click “Show Alternative” to get fancy captcha (very easy to solve).

Image Image

.:: RAPiDGATOR ::.

Code: Select all
https://safelinking.net/p/5f21133c73

.:: UPLOADED ::.

Code: Select all
https://safelinking.net/p/a0a0b33192

.:: NETLOAD ::.

Code: Select all
https://safelinking.net/d/978b96be03

.:: ULTRAMEGABiT ::.

Code: Select all
https://safelinking.net/d/a8638c8de6

.:: 180UPLOAD ::.

Code: Select all
https://safelinking.net/d/cd0fad2a2d

.:: HUGEFiLES ::.

Code: Select all
https://safelinking.net/d/5007df32be

.:: SOCKSHARE ::.

Code: Select all
https://safelinking.net/p/8a13d5c356

.:: FiREDRiVE (ex PL) ::.

Code: Select all
https://safelinking.net/d/a20d9d8d63

.:: BiLLiONUPLOADS ::.

Code: Select all
https://safelinking.net/d/acd9f17533

 

Comments are closed.

Online Marketing